Archive for the The Draytones Category

The Draytones – Up In My Head (BMG Japan BVCP-25136) (JP 2008, 1st Press, Promo, Bonus Flac)

Posted in The Draytones on febrero 4, 2010 by Erick Arenas





The Draytones – Up In My Head (BMG Japan BVCP-25136) (JP 2008, 1st Press, Promo, Bonus)
2008 | FLAC | EAC, LOG & CUE | Lossless 300dpi Artwork Scans | 278 MB

MD5 [] FFP [] CUE [X] LOG [X] INFO TEXT [X] ARTWORK [X]

webfind [] selfrip [X]

Extraction Log:

EAC LOG

Exact Audio Copy V0.99 prebeta 4 from 23. January 2008

EAC extraction logfile from 10. July 2009, 18:46

The Draytones / Up In My Head (BMG Japan BVCP-25136) (JP 2008, 1st Press, Promo, Bonus)

Used drive : HL-DT-STDVDRAM GSA-H12L Adapter: 0 ID: 1

Read mode : Secure
Utilize accurate stream : Yes
Defeat audio cache : No
Make use of C2 pointers : No

Read offset correction : 667
Overread into Lead-In and Lead-Out : No
Fill up missing offset samples with silence : Yes
Delete leading and trailing silent blocks : No
Null samples used in CRC calculations : Yes
Used interface : Native Win32 interface for Win NT & 2000

Used output format : User Defined Encoder
Selected bitrate : 1024 kBit/s
Quality : High
Add ID3 tag : Yes
Command line compressor : C:\Programme\FLAC\flac.exe
Additional command line options : -8 -T “Artist=%a” -T “Title=%t” -T “Album=%g” -T “Date=%y” -T “Tracknumber=%n” -T “Genre=%m” %s -o %d

TOC of the extracted CD

Track | Start | Length | Start sector | End sector
———————————————————
1 | 0:00.00 | 3:02.27 | 0 | 13676
2 | 3:02.27 | 2:23.60 | 13677 | 24461
3 | 5:26.12 | 3:17.45 | 24462 | 39281
4 | 8:43.57 | 2:23.46 | 39282 | 50052
5 | 11:07.28 | 3:21.03 | 50053 | 65130
6 | 14:28.31 | 3:08.62 | 65131 | 79292
7 | 17:37.18 | 3:38.48 | 79293 | 95690
8 | 21:15.66 | 2:52.14 | 95691 | 108604
9 | 24:08.05 | 4:54.40 | 108605 | 130694
10 | 29:02.45 | 2:58.48 | 130695 | 144092
11 | 32:01.18 | 2:38.39 | 144093 | 155981
12 | 34:39.57 | 2:46.18 | 155982 | 168449

Range status and errors

Selected range

Filename V:\INCOMING\LOSSLESS\ZZZ-EAC\The Draytones – Up In My Head (BMG Japan BVCP-25136) (JP 2008, 1st Press, Promo, Bonus).wav

Peak level 99.7 %
Range quality 100.0 %
Test CRC 45831C25
Copy CRC 45831C25
Copy OK
No errors occurred

AccurateRip summary

Track 1 not present in database
Track 2 not present in database
Track 3 not present in database
Track 4 not present in database
Track 5 not present in database
Track 6 not present in database
Track 7 not present in database
Track 8 not present in database
Track 9 not present in database
Track 10 not present in database
Track 11 not present in database
Track 12 not present in database
None of the tracks are present in the AccurateRip database

End of status report


CD Info:

Draytones, The – Up In My Head

Label: 1965 Records, BMG (Japan)
Catalog#: BVCP-25136, BVCP-25136
Format: CD, Album
Country: Japan
Released: 21 May 2008
Genre: Rock
Style: Acoustic, Indie Rock
Notes: Mini-LP style with gatefold cardboard sleeve. Japanese Edition contains 2 bonus tracks.

Tracklisting:
1 Turn It Down
2 After All
3 Heart Shaped Line
4 As High As I Can
5 On The Way
6 Don’t Talk To Me
7 Summer’s Arrived
8 I Have To Go
9 Throwing Stones
10 Flowers On The Bridge
Japanese Bonus Tracks:
11 Troubled Man
12 Happiest Man

Band Info:

The Draytones are a Anglo-Argentine music group formed in London, England in 2006. The same year they signed a record deal with 1965 Records, an independent record label based in London.2008 began with the band recruiting Alex Gazettas (formerly of Steve Lamacq favourites White Man Kamikaze) to play keyboards. Following this they emberked on a bi-weekly residency at the 12 Barclub, Tin Pan Alley, London.

The Draytones were then personally invited to support Paul Weller on his UK tour in May after he heard the “Up In My Head” LP.

They played dates across the UK including Blackpool Empress Ballroom and Hammersmith Apollo, London. They were filmed throughout the tour by a TV crew from Argentina, filming a 13 part documentary for South American network television (to be aired late 2008)

The song “Don’t Talk To Me” was used on the Clash Magazine covermount CD in April 2008. The single “Turn It Down” was released in April 2008. The album “Up In My Head” was released 5 May, 2008. wikipedia

Format:
Flac (Compression Level 8)
Links:
[Multiupload/100 MB Splits]

Download Part1
Download Part2

Password:
finest-hq-audio

Anuncios